Psx Redump

Another way to play PSX roms is using PSP ands it's built-in PS1 emulator. Unlicensed FreeLoader 1. 2021-01-23 21:35. The Redump project records the hashes of many videogames, so just compare your game's hash to the one in Redump and if they match, you have a good copy!. Includes manuals and magazines. xbe_orig to default. Redump guide Redump guide. All games are in. I changed the redump game, description and rom texts to use the hyperlist xml game text. There is a Blue case option for Pal games in the Download. SNK – Neo Geo CD. Sony PlayStation Systems. Recommended Emulators: ePSXe (Official Site) - For PC, Mac and Linux. This Vault contains a perfect copy of every PlayStation 2 game released in the US, verified by Redump. 1998 adventure video game. PSX Redump (USA) = 538GB. EmuMovies Official 3D Boxes pack for the Sony PlayStation - Japan. org is a disc preservation project. Please Update (Trackers Info) Before Start "PS1 PSX PLAYSTATION USA REDUMP EVERY GAME 1 OF 4" Torrent Downloading to See Updated Seeders And Leechers for Batter Torrent Download Speed. Advanced PSX memory card editor which supports a lot of memory card and single save formats. org]Image file problems. Sega Saturn. 172 for the corresponding games to display properly. org] Sony PlayStation (USA) (20130213) 449. The disc only have a mode 2 ISO track. The other day, I generated a redump dat for ps1 containing only the 1713 games listed in HyperList for that system. [PS1] Sony PlayStation (USA) [Redump от 02. Note: Don't include kiosk demos or betas. Date Posted. Before anyone says it, I am using verified [REDEUMP] files which have not been renamed and are in. tv/dangerdolan (and click FOLLOW to be notified for when I go live) Click here for the written version of this video: http. PlayStation 2. org is the "source of truth" so to speak for these hashes (Notice how CleanRip references redump. Name Last modified Size; Go to parent directory: 007 - The World Is Not Enough (USA) (Beta). About exhumed psx iso download. org] » PS :: RuTracker. 2 Unconfirmed games 1. Posted by 2 years ago. NET framework 2. CDR plugin, which is supported by many PlayStation emulators. Region Title System Version Edition Languages Serial Status; C-12: Final Resistance: PSX: Original, Platinum: SCES-03364 … C-12: Final Resistance: PSX: Demo: SCED-03516. xbe and then re-copy the new default. DC ISOs (1076) GCN ISOs (1342) Genesis ROMs (1659) N64 ROMs (787) NES ROMs (2774) PCECD ISOs (509) PS2 ISOs (4078) PSX ISOs (5134) Saturn ISOs (1296) SNES ROMs (3484) View All Sections. Redump PS1 PAL sets. PSX Aficionado. Издатель: Konami of Europe GmbH Платформа: Disney-Pixar's A Bug's Life (U) (v1. Using BitTorrent is legal, downloading copyrighted material isn’t. Redump Psx Gamebase. nz PlayStation Demo Disc - Shock Your System! (USA)(SCUS-94482)(Redump) (USA)(SCUS-94482)(Redump) By Lord Valarion , February 27, 2018. Search Results for radical bakeers / Playstation online. RARCs are used namely by SMG. Macintosh System Software 1. Ridge Racer [PSX]. Search the unlimited storage for files?. Advanced PSX memory card editor which supports a lot of memory card and single save formats. This is a maintained Redump Disc Image Collection and will be updated periodically. By Bigby, October 1, 2009 in General. Quería compartir con ustedes este gran juego de PS2, pero la versión Redump, es decir, la copia exacta de la ISO original PAL, por lo cual tiene el Audio Sincronizado!. Check out our playstation 2 redump selection for the very best in unique or custom, handmade pieces from our shops. bin" BINARY TRACK 01 MODE2/2352 INDEX 01 00:00:00. png (Size: 109. So, I downloaded two demo discs from the wild plains of the internet which I really wanted to get, but they're redump. Tutustu uuden sukupolven PlayStation 4- ja PS5-konsoleihin - nauti tuhansista immersiivisistä huippupeleistä jokaisesta genrestä ja kirjoita PlayStation-konsolin säännöt uudelleen. This page was last edited on 11 July 2020, at 04:17. Permainan PSX yang paling berkesan buat saya adalah Final Fantasy 7, Harvest Moon Back to Jikalau Anda memang orang yang ingin mendownload file game PSX yang ukuran filenya kecil. org is a games database. title=ps1+psx+playstation+usa+redump+every+game+4+of+4 PLAY ps1 psx playstation usa parlancedownload. Redump - disc images information. Вы не можете скачать эти ф. Support for more types of gameshark codes (PSX cheats). Second memory card slot can be enabled via the. Now it supports. Partial PlayStation 2 Redump (2016/03/19) (5046/6863 games) AlvRo's Collection A collection of many consoles, which contains Xbox/Xbox 360, PlayStation 3, Wii, and many other retro consoles. Missing 19 games. Sony PlayStation (PAL) [Redump] Files in this torrent could contain viruses. They're exact copies of the original media they were originally released. All structured data from the main, Property, Lexeme, and EntitySchema namespaces is available under the Creative Commons CC0 License; text in the other namespaces is available under the Creative Commons Attribution-ShareAlike License; additional terms may apply. The Redump project can answer that, and here's how it works. org's goal is to have a complete database of disc-based games using only original media and provide the necessary tools and info for other users. PSX Brasil no YouTube. Requires login. Playstation models and BIOS guide with redump-based DAT-file for BIOS. fortunecity. Hey all, I'm looking for a junk / dead PS1 SCPH-1000 (JPN) motherboard. Learn to convert PSX (PSOne) games to PSP eboots that can be played on a real PlayStation Portable/PSP, follow the instructions and you will be making your own custom boots in no time!. See also: MIA Lists Updated: January 13, 2021 DAT Version: Sony - PlayStation - Datfile (10500) (2021-01-13 02-52-17) Summary. org, psx, ps1, playstation 1, sony playstation 1 The Unofficial Redump Hoard 90,000 90K. Users of MAME's chdman tool may also find this option useful as chdman returns the merged cue format when decompressing. I am having an issue with patching PSX roms if you could help me , please download the following links below i have tried 2 games already ( die hard trilogy. Платформа: Sony Playstation CyberTiger (U) [SLUS-01004] (Redump) Год выпуска: 1999 Разработчик: Electronic Arts, Inc. 这个redump解决的是其他什么问题呢? 用xebra模拟器玩老镜像和REDUMP镜像都不花屏,任何BOSS都不花屏。. Издатель: Sony Computer Entertainment. Includes manuals. Have you tried the emulator simply named PSX? I never have problems with it. Sony PlayStation (NTSC-J) [Redump] torrent download location Download Direct Sony PlayStation (NTSC-J) [Redump] could be available for direct download Spónsored Link google. Scroll down to Playstation (Beetle PSX HW). It needs a modern card. To browse PSX ISOs, scroll up and choose a letter or select Browse by Genre. This version will include compressed iso support (PBP), SBI support (such as used by redump. This page was last edited on 21 December 2020, at 02:27. 161 to MAME 0. cue file and one. exe into the same folder as your PSX BIN/CUE files. Using BitTorrent is legal, downloading copyrighted material isn’t. Only four are missing as original artwork for them is unavailable online because they are demo discs. You will definitely find some cool ROMs to download. By Bigby, October 1, 2009 in General. 1k files from emuparadise. 56KB, Downloaded 17793 time(s)). org/wiki/Error_dand_correction два - http://skyscraper. Don't have a UMD video to test this but have you tried simply using the USB mount option in the XMB? Same goes for dumping games BTW. de Redump PSX PAL Missings podréis ver mi nombre allí e incluso mi perfil de Dumper en la web Redump es un proyecto que básicamente le saca un DNI al disco albergando información sobre todo. Sony Playstation USA - Redump. Popular gaming website. Advertising. org is a disc preservation database and community dedicated to collecting precise and accurate information about video games released on optical media. See also: MIA Lists Updated: January 13, 2021 DAT Version: Sony - PlayStation - Datfile (10500) (2021-01-13 02-52-17) Summary. PSX Padding Tool. ePSXe (Google Play - PAID) - For Android devices. Partial PlayStation 2 Redump (2016/03/19) (5046/6863 games) AlvRo's Collection A collection of many consoles, which contains Xbox/Xbox 360, PlayStation 3, Wii, and many other retro consoles. Popular gaming website. CPU Recompiler/JIT (x86-64 and AArch64) Hardware (D3D11 and OpenGL) and software rendering Upscaling and true colour (24-bit) in hardware renderers "Fast boot" for. Full Movies via Streaming Link for free. All games are in. Gods Will Fall (PS4) - Gameplay - Primeiros 41 Minutos / First 41 Minutes. org] Sony PlayStation (USA) (20130213) 449. Have you tried the emulator simply named PSX? I never have problems with it. Download Super Smash Bros ROM. 2002 video game. Redump Sega CD set for all regions. ^ Kohler, Chris. Please Update (Trackers Info) Before Start "PS1 PSX PLAYSTATION USA REDUMP EVERY GAME 2 OF 4" Torrent Downloading to See Updated Seeders And Leechers for Batter Torrent Download Speed. a decryption key obtained from Redump. I'd prefer an official sony naming like the cd mcu, but without that then IMO the mess/redump naming system is the best compromise. This page was last edited on 20 December 2020, at 09:35. Advanced PSX memory card editor which supports a lot of memory card and single save formats. Getting Helps?. Included gamelist support (click on the PSX letters in the logo). Be careful of what you download or face the consequences. EmuMovies 2D Discs Pack for the Sony PlayStation - Japan Availability: Site, FTP & Sync This is a collection of 1021 Discs for the Japan Region Original Sony PlayStation. Fixes to the core and the CD-Rom decoder which made almost 20 more PS1 games playable or working better like. I'd prefer an official sony naming like the cd mcu, but without that then IMO the mess/redump naming system is the best compromise. xbe_patch then rename the default. The disc only have a mode 2 ISO track. com Sony PlayStation (NTSC-J) [Redump] 6 months. Créé par pSX Author, pSX est un émulateur de Sony Playstation qui a l'énorme avantage de ne pas utiliser de système de plugins, contrairement à ePSXe et autres PSemuPro & compatibles. Rumble in online play (For ePSXe 1. Although PSX Emulator does not. Sega – Game Gear. 1k files from emuparadise. Works with Android, Windows, and Mac OS X devices. PSX: Original: SLUS-00787: Tactical Armor Custom Gasaraki タクティカ・ルアーマー・カスタム・ガサラキ: PSX: Original: SLPS 02181: Tactics Ogre: PSX: Original: SLUS-00560: Tactics Ogre: Let Us Cling Together タクティクス オウガ: PSX: Artdink Best Choice: SLPS 02524: Tadaima Wakusei Kaitaku-chuu! ただいま惑星. In total, it's about 2. xml: re-add unknown source entries: Vas Crabb: 4 weeks : Tag Download Author Age; mame0228: commit 140f446933 Vas Crabb: 15 hours: mame0227. Rayman 2: The Great Escape (English) 0 references. The Redump project records the hashes of many videogames, so just compare your game's hash to the one in Redump and if they match, you have a good copy!. Платформа: Sony Playstation. PSX | Игры PSP | PSX-PSP. Note: Don't include kiosk demos or betas. Updated the UI to gtk3. Please Update (Trackers Info) Before Start "PS1 PSX PLAYSTATION USA REDUMP EVERY GAME 2 OF 4" Torrent Downloading to See Updated Seeders And Leechers for Batter Torrent Download Speed. org_2017-11-12. So, I downloaded two demo discs from the wild plains of the internet which I really wanted to get, but they're redump. [for beetle psx hw: same as. There are 2585 3D Boxes in the collection. The other day, I generated a redump dat for ps1 containing only the 1713 games listed in HyperList for that system. + ResEdit work by null_classvoid. zip (View Contents) 07-Jun-2019 02:38:. Choose a download type Download time. Create Time. com/free-movies/watch-fakin-da-funk-online- download-fakin-da-funk/ ps1 psx. ePSXe is a closed-source, plugin-based PlayStation emulator. Dreamcast set (2016-06-13). org site to prevent them from. Home Forums > PlayStation 3 Forums > General PS3 Discussion > Help & Support > checking backups with redump Discussion in ' Help & Support ' started by trebor22 , Dec 16, 2019. PlayStation Portable Dumping Guide (UMD: Universal Media Disc) PlayStation 3 Dumping Guide (Blu-Ray / BD-Rom) Currently there are no correct guides or known methods for perfectly dumping Pioneer LaserActive laser discs. Don't have a UMD video to test this but have you tried simply using the USB mount option in the XMB? Same goes for dumping games BTW. 2 Unconfirmed games 1. Downloaded a full Playstation ROM collection. "PlayStation Classic Plays Fine, But It's A Bare-Bones Experience". Publication date 2019-06-05 Topics redump, redump. 2021-01-23 21:35. Availability: Site, FTP & Sync. Redump - disc images information. 172 for the corresponding games to display properly. zip | 528,97 Mb. Jackie Chan Stuntmaster » CTR - Crash Team Racing » Digimon World 3 » WWF SmackDown! 2 - Know Your Role. By Bigby, October 1, 2009 in General. I've been reporting on Sony PlayStation hacking news since 2000 and started PSXHAX in 2014 to cover PlayStation (PSX), PlayStation 2 (PS2), PlayStation 3 (PS3), PlayStation 4 (PS4), PlayStation. PSX Redump (Japan) = 720GB. org site to prevent them from. There are 2585 3D Boxes in the collection. Metal Gear Solid - VR Missions (U) [SLUS-00957] (Redump) Год выпуска: 1999 Разработчик: Konami Computer Entertainment Japan, Inc. These are usually games that use CDDA audio. PSX Redump (USA) = 538GB. title=ps1+psx+playstation+usa+redump+every+game+4+of+4 PLAY ps1 psx playstation usa parlancedownload. Currently PSIO will only work with rips that have one. '98 Koushien: Koukou Yakyuu Simulation 高校野球シミュレーション '98 YEAR 甲子園. Ridge Racer Revolution (U) [SLUS-00214] (Redump) Год выпуска: 1996 Разработчик: Namco Limited Издатель: Namco Limited Платформа: Sony Playstation Описание: Rage Racer (U) [SLUS-00403] (Redump) Год выпуска: 1996 Разработчик: Namco Limited Издатель: Namco Limited Платформа: Sony Playstation Описание: Time. • Compatible with Redump and Tosec images (for both Dreamcast/Saturn) • Compatible with CDI, GDI, CCD, MDF, bin/iso+cue images • Plug and play, no soldering required! •. Скачать игры PS и PSX для эмулятора на Android. net by LyonHrt (July 1st, 2015). This page was last edited on 11 July 2020, at 04:17. Posted by 2 years ago. Издатель: Sony Computer Entertainment. Redump is a database for datting and providing all game information we can about optical disc dumped data, for pure gaming preservation. The naming convention is based on the 2019-3-31 ReDump set. I changed the redump game, description and rom texts to use the hyperlist xml game text. the games saved in. 5 Famicom Disk. Be careful of what you download or face the consequences. SNK – Neo Geo CD. I am having an issue with patching PSX roms if you could help me , please download the following links below i have tried 2 games already ( die hard trilogy. org, PS1, PSX, Playstation. PSX-R2 is an audiophile power supply, which is designed to work with certain of our core hi-fi The PSX-R2 provides an extremely smooth and stable DC feed allowing any partnered component to. 1 Famicom/NES 1. PSX ISOs (5134) NDS ROMs (6294) MAME ROMs (34305) GCN ISOs (1342) SNES ROMs (3484) GBA ROMs (2647) NES ROMs (2774) N64 ROMs (787) View All Sections; Consoles. com's game information and ROM (ISO) download page for CTR - Crash Team Racing (Sony Playstation). They're exact copies of the original media they were originally released. - Over 400 XBOX discs, bringing the USA set much closer to completion. Publication date 2019-06-05 Topics redump, redump. Select it to install it. My Sony PlayStation USA (Redump. This is a collection of 1021 Discs for the Japan Region Original Sony PlayStation. Although PSX Emulator does not. If you confirm that you indeed have a compatible. Requires login. [redump Org] PSX (Japan) UPD 1. In case you wonder if Redump storages roms, no, we dont. cue file and one. Crash Bandicoot. it Cdi Redump. Search the unlimited storage for files?. Please take the time to go through the links below to see what they are. PSX: Original: SLUS-00787: Tactical Armor Custom Gasaraki タクティカ・ルアーマー・カスタム・ガサラキ: PSX: Original: SLPS 02181: Tactics Ogre: PSX: Original: SLUS-00560: Tactics Ogre: Let Us Cling Together タクティクス オウガ: PSX: Artdink Best Choice: SLPS 02524: Tadaima Wakusei Kaitaku-chuu! ただいま惑星. Region Title System Version Edition Languages Serial Status; Digimon World: PSX: Original, Platinum. It enables you to run classic games on a wide range of computers and consoles through its slick graphical interface. org's goal is to have a complete database of disc-based games using only original media and provide the necessary tools and info for other users. Every game has a digital fingerprint called a "hash" and when two files have the same hash you know they're exactly the same. org is a games database. - Around 900 PSX and 950 PS2 discs, including many Japanese, PAL regional variants and Demo's. All structured data from the main, Property, Lexeme, and EntitySchema namespaces is available under the Creative Commons CC0 License; text in the other namespaces is available under the Creative Commons Attribution-ShareAlike License; additional terms may apply. There are 1419 ROMs for Playstation (PSX/PS1 ISOS) console. In case you wonder if Redump storages roms, no, we dont. RetroArch is a frontend for emulators, game engines and media players. Download the Thunder Force VI ROM for Playstation 2 /PS2. bin file, but a lot of games ripped using the Redump method have multiple. Filename: Thunder Force VI (Japan). PSX Place is your leader for the latest Homebrew & Hacking News in the world of PlayStation. This version will include compressed iso support (PBP), SBI support (such as used by redump. It enables you to run classic games on a wide range of computers and consoles through its slick graphical interface. The PS1 is long out of date, but the games are still lots of fun to play. Don't have a UMD video to test this but have you tried simply using the USB mount option in the XMB? Same goes for dumping games BTW. Replacing the PlayStation 2 BIOS files with ones from the redump datfile (nw)SCPH-50002, 50003, 50004 H-chassis SECTION 1 CIRCUIT DIAGRAM Note on Schematic Diagram: A ll capacitors are in F unless otherwise noted. 4 Redump needed 1. Includes manuals and magazines. exe into the same folder as your PSX BIN/CUE files. I've never heard the term "Reference Redump Validated ISOs" specifically, but I've used dumps from Redump (Redump. Sony Playstation, redump, redump. Psx redump collection. Did you scroll all this way to get facts about playstation 2 redump?. Redump Sega Cd. Sony PlayStation (PAL) [Redump] Files in this torrent could contain viruses. This page was last edited on 21 December 2020, at 02:27. EmuMovies Official 3D Boxes pack for the Sony PlayStation - Japan. These will function on MAME/MESS 0. org is a games database. ePSXe (Google Play - PAID) - For Android devices. Vous devez être inscrit pour. Posted by Neo8x on 23 janvier 2021 23 janvier 2021 Redump. de Redump PSX PAL Missings podréis ver mi nombre allí e incluso mi perfil de Dumper en la web Redump es un proyecto que básicamente le saca un DNI al disco albergando información sobre todo. Sony - PlayStation - Games (Japan). submitted 1 year ago * by Hunter12888y. Runs on 1fichier, any passwords that are needed are always ByAlvRo. Theyre all zipped and I opened a few to see how they were structured to make sure their extensions were formatted how Beetle PSX required in. I changed the redump game, description and rom texts to use the hyperlist xml game text. (*) Run PSX-EXE : Runs a PSX-EXE file (exe or. - The PSX emulators: ePSXe, PCSX, SSSPSX, PSX (psxfin), PSXeven, Emurayden & Xebra). This is a collection of 3693 3D Boxes for the Japan Region Original Sony PlayStation. me Have Largest Bittorrent Database. beetle psx is cpu-accelerated and therefore the most compatible and more faithful, while the beetle these settings are safe for Window and Game Capture with OBS-Studio. 2 Posts (Offline) 5. I even have a whole ps2 redump. All games are in. org: May 05 2017, 07:14. 1 Famicom/NES 1. com is the number one paste tool since 2002. 007 - The World Is Not Enough (USA) 007 - Tomorrow Never Dies (USA) 007 Racing (USA) 16 Tales 2. org is the "source of truth" so to speak for these hashes (Notice how CleanRip references redump. org 2019-06-05. We are available for ftp file upload, multiple file upload or even remote file upload. org-2019-05-27. All structured data from the main, Property, Lexeme, and EntitySchema namespaces is available under the Creative Commons CC0 License; text in the other namespaces is available under the Creative Commons Attribution-ShareAlike License; additional terms may apply. Redump is a database for datting and providing all game information we can about optical disc dumped data, for pure gaming preservation. This ISOs are known good dumps and their hash/CRC-32 matches redump's. is it the pal or ntsc version?. These will function on MAME/MESS 0. 1k files from emuparadise. [redump org] PSX (Japan) bin+cue+ape 这7个 torrent 是一套,比较老,音轨都是ape格式。 [redump org] PSX (Japan) [#-E]. PSX2PSP is a Windows application that will allow you to convert your PSX backup disc images to the PSP EBOOT. It’s the greatest Hits edition of “ESPN Extreme Games” it lost EPSN’s endorsement at some point…. I keep those in a folder and transfer the folder onto the pi to keep the ES list. Just to clear up some confusion, Redump. sbi" for PAL version of Resident Evil 3: Nemesis. Psx Redump Europe mediafire links free download, download Redump, [PSX PSP]Nintendo 150 games PSX version[ING], psx tool AR hacker kit psx - psx redump europe mediafire files. Unknown alien forces have invaded the Download playstation (PSX/PS1) ROMs free and play on your devices windows pc , mac ,ios and android! - page 1 CoolROM. Publication date 2019-06-05 Topics redump, redump. bin retroarch\cores\mednafen_psx_libretro. The Redump set for PlayStation 1 USA is 385GB (just the games, no demo/samplers etc) in 7zip Extract chdman. xbe_patch then rename the default. Downloaded a full Playstation ROM collection. Posts: 306. PSX Emulator. title=ps1+psx+playstation+usa+redump+every+game+4+of+4 PLAY ps1 psx playstation usa parlancedownload. PlayStation Portable Dumping Guide (UMD: Universal Media Disc) PlayStation 3 Dumping Guide (Blu-Ray / BD-Rom) Currently there are no correct guides or known methods for perfectly dumping Pioneer LaserActive laser discs. It is recommended by the PSIO creators that you rip your games using the Redump method (or use existing Redump rips… provided you already own a legitimate copy of the game of course). Using BitTorrent is legal, downloading copyrighted material isn’t. 2 Unconfirmed games 1. xbe_orig to default. All structured data from the main, Property, Lexeme, and EntitySchema namespaces is available under the Creative Commons CC0 License; text in the other namespaces is available under the Creative Commons Attribution-ShareAlike License; additional terms may apply. To use SBI, name it after EXE name, leaving extension. Издатель: Hasbro Interactive, Inc. 2002 association football video game. 这个redump解决的是其他什么问题呢? 用xebra模拟器玩老镜像和REDUMP镜像都不花屏,任何BOSS都不花屏。. SonyPlayStation2BIOS_Redump. Sony PlayStation (NTSC J) torrent download, InfoHash 57C5611CE473C52C6262580887EAC58C4BE68CF1. Redump GameCube USA set. Since the last time we posted with the Dreamcast reports (yesterday, the last PAL retail games were submitted to Redump by Maddog, which finally leaves Redump and TOSEC having complete sets for USA and Europe), lot of things have been going on. ORG verified ISO: This bin file was verified and matches CRC/SHA of redump. place of publication. Vous devez être inscrit pour. org is a disc preservation database and internet community dedicated to collecting precise and accurate information about every video game ever released on optical media of any system. Create Time. org] Sony - PlayStation (NTSC-U) 20100722, so they should be solid. Out of maybe 60 games, only about 10 are scanning. com/thsx/modchip. SLPM 80238. These keys are currently not public but can still be used with out One-click dumper as mentioned below. Check out our playstation 2 redump selection for the very best in unique or custom, handmade pieces from our shops. Any hashes for games not in the redump. Tonka Space Station (U) [SLUS-01007] (Redump) Год выпуска: 2000 Разработчик: Data Design Interactive Издатель: Hasbro Interactive Платформа: Sony Playstation Frogger (U) [SLUS-00506] (Redump) Год выпуска: 1997 Разработчик: Millennium Interactive Ltd. Name Last modified Size; Go to parent directory: 007 - Demain ne Meurt Jamais (France). PlayStation GameShark Updates Sega Naomi 2 Sega Mega CD & Sega CD Sega Naomi Sega Prologue 21 Sega Saturn Sony PlayStation BIOS Images Sony PlayStation 2 BIOS Images TAB-Austria Quizard Tomy Kiss-Site Video CD VM Labs NUON VTech V. Redump PS1 PAL sets. 1k files from emuparadise. 14a (Europe) Action Replay MAX (Europe) Power Link Game Enhancer Disc (Europe. software version. Requires login. This page was last edited on 20 December 2020, at 09:35. Since the last time we posted with the Dreamcast reports (yesterday, the last PAL retail games were submitted to Redump by Maddog, which finally leaves Redump and TOSEC having complete sets for USA and Europe), lot of things have been going on. Smile Pro ZAPiT Games Game Wave Family Entertainment System. 0 (REDUMP) yet. First, you should try to verify if your image is a valid one, by using Redump. Please note that in some cases where a game required 2 Discs o. 13 (Europe) Action Replay 1. You can also choose the non-HW version, but I recommend using HW instead. 4 Redump needed 1. CDR plugin, which is supported by many PlayStation emulators. org dat were gathered from various places and verified against several people's collections. Here is a breakdown of mine most near 100%: Saturn Redump (USA/Jap/Euro) = 461GB. sbi, and put in /epsxe/pathes folder. - The Audio, CDrom, Gamepad & Video plugins. For your convenience added optional NON-Redump version with single bin/cue set. Be careful of what you download or face the consequences. See full list on retropie. Jackie Chan Stuntmaster » CTR - Crash Team Racing » Digimon World 3 » WWF SmackDown! 2 - Know Your Role. ePSXe (Google Play - PAID) - For Android devices. Hey all, I am running the latest release [Lakka-RPi2. Requires login. Choose a download type Download time. While the database contains information about copyrighted materials, it does not contain the data on the media. Psx Redump Europe mediafire links free download, download Redump, [PSX PSP]Nintendo 150 games PSX version[ING], psx tool AR hacker kit psx - psx redump europe mediafire files. This page was last edited on 21 December 2020, at 02:27. org is a disc preservation database and internet community dedicated to collecting precise and accurate information about every video game ever released on optical media of any system. It is recommended by the PSIO creators that you rip your games using the Redump method (or use existing Redump rips… provided you already own a legitimate copy of the game of course). UP9000-NPUJ01235_00-0000000000000001. Currently PSIO will only work with rips that have one. (Must be FAT32 or NTFS, if not you'll need to format it, read down below for instructions). Sony PlayStation (PAL) [Redump] Files in this torrent could contain viruses. Crash Bandicoot. PlayStation. PSX down ? hoping for a reup. 2 Unconfirmed games 1. is it the pal or ntsc version?. org site to prevent them from. Redump - disc images information. Search the unlimited storage for files? Hitfile. The naming convention is based on the 2019-3-31 ReDump set. We have thousands of free online games, which you can play for free in your browser. bin" BINARY TRACK 01 MODE2/2352 INDEX 01 00:00:00 We recommand CD images from Redump. SSX (Q1852226) Redump. I keep those in a folder and transfer the folder onto the pi to keep the ES list. Nocash PSX Emulator/Debugger Emulation Controls Emulation Files Emulation Notes No$psx KSEG2 is usually intended to contain virtual kernel memory, in the PSX it's containing Cache Control. Redump GameCube USA set. As this post said, this is not the end, is just the edge of it. Please Update (Trackers Info) Before Start "PS1 PSX PLAYSTATION USA REDUMP EVERY GAME 2 OF 4" Torrent Downloading to See Updated Seeders And Leechers for Batter Torrent Download Speed. 0) [SCUS-94288] (Redump) Год выпуска: 1998 Разработчик: Travellers Tales (Uk) Ltd. All structured data from the main, Property, Lexeme, and EntitySchema namespaces is available under the Creative Commons CC0 License; text in the other namespaces is available under the Creative Commons Attribution-ShareAlike License; additional terms may apply. Thread checking backups with redump. Torrent only. NES, Gameboy, Atari, PSX, etc, visit http://www. Region Title System Version Edition Languages Serial Status; Digimon World: PSX: Original, Platinum. Here's the latest version of redump. net by LyonHrt (July 1st, 2015). Topics: redump, redump. 0 MIA Topics: redump, redump. Платформа: Sony Playstation Описание: Ridge Racer (U) [SCUS-94300] (Redump) Год выпуска: 1995 Разработчик: Namco Limited Издатель: Namco Limited Платформа: Sony Playstation Описание: WCW vs. Overboard! is a Action video game published by Psygnosis released on August 29th, 1997 for the Sony PlayStation. (*) Run PSX-EXE : Runs a PSX-EXE file (exe or. Browse: Top ROMs - By Letter - By Genre. I'd prefer an official sony naming like the cd mcu, but without that then IMO the mess/redump naming system is the best compromise. All games sourced from UG [Redump. Print Quote. com/thsx/modchip. Biggest collection of PS 1 games available on the web. Top ROM for Sony PlayStation NTSC-U (REDUMP) Format: BIN & CUE with proper names. 2 core, including a 32bit version, and a 64bit version (alpha). - Close to 800 Sega (DC, MCD, SS) discs. xbe and then re-copy the new default. arm-devel-20160715143255-r21527-g4656d16] Lakka on my Raspberry Pi 3 with good success so far, but I am having issues with PlayStation games not scanning. By the way, if you want the best experience with your PSX games on Retropie, you can use a DualShock wireless controller, it's working well on Raspberry Pi (tutorial here). Note: Don't include kiosk demos or betas. org, PS1, PSX, Playstation. - Around 900 PSX and 950 PS2 discs, including many Japanese, PAL regional variants and Demo's. SonyPlayStation2BIOS_Redump. Crash Bandicoot. This is a collection of cue and sbi files found around the web for Playstation One (PSX) roms. Advanced PSX memory card editor which supports a lot of memory card and single save formats. Games with boxes but no disc, only DLC code:. All structured data from the main, Property, Lexeme, and EntitySchema namespaces is available under the Creative Commons CC0 License; text in the other namespaces is available under the Creative Commons Attribution-ShareAlike License; additional terms may apply. png (Size: 109. We recommand CD images from Redump. To browse PSX ISOs, scroll up and choose a letter or select Browse by Genre. Psx redump collection. Includes DAT files to verify with ClrMamePro. 『국내 토렌트 사이트가 한 자리에』 1G1R - Redump - NEC - TurboGrafx-CD > 게임 > 대한민국 No. Scroll down to Playstation (Beetle PSX HW). Please Update (Trackers Info) Before Start "PS1 PSX PLAYSTATION USA REDUMP EVERY GAME 2 OF 4" Torrent Downloading to See Updated Seeders And Leechers for Batter Torrent Download Speed. Date Posted. 1G1R - Redump - Sony - PlayStation (Part 2) seeders: 12 leechers: 0 updated: 2 weeks ago 03/09/2020 19:17:23 ( 4 months ago). There is a Blue case option for Pal games in the Download. It is recommended by the PSIO creators that you rip your games using the Redump method (or use existing Redump rips… provided you already own a legitimate copy of the game of course). Cdi Redump - dsip. org] » PS :: RuTracker. [Redump org] PSX download. Requires login. EmuMovies Official 3D Boxes for the Sony PlayStation 2. 161 (approximately). Redump - disc images information. Tonka Space Station (U) [SLUS-01007] (Redump) Год выпуска: 2000 Разработчик: Data Design Interactive Издатель: Hasbro Interactive Платформа: Sony Playstation Frogger (U) [SLUS-00506] (Redump) Год выпуска: 1997 Разработчик: Millennium Interactive Ltd. PSx Renamer v1. org, Jackie Chan Stuntmaster doesn't have any CDDA tracks. org 2019-06-05. Region Title System Version Edition Languages Serial Status; C-12: Final Resistance: PSX: Original, Platinum: SCES-03364 … C-12: Final Resistance: PSX: Demo: SCED-03516. name>psx Playstation ~\roms\psx. Getting Helps?. org/wiki/Error_dand_correction два - http://skyscraper. PlayStation. xbe and then re-copy the new default. - Around 900 PSX and 950 PS2 discs, including many Japanese, PAL regional variants and Demo's. 1 Completely undumped games 1. 14a (Europe) Action Replay MAX (Europe) Power Link Game Enhancer Disc (Europe. All games are in. To browse PSX ISOs, scroll up and choose a letter or select Browse by Genre. January 30, 2019 - 10:37 pm. Rumble in online play (For ePSXe 1. For PSX games you may end up with a WHOLE LOT OF TRACK FILES like for Tomb Raider, or random japanese games. Posted by Neo8x on 28 décembre 2020 28 décembre 2020 Redump. Although PSX Emulator does not. Psx redump collection. psx_metafix: psx. Advanced PSX memory card editor which supports a lot of memory card and single save formats. Sega – Game Gear. Create Time. Redump - disc images information. bin" BINARY TRACK 01 MODE2/2352 INDEX 01 00:00:00 We recommand CD images from Redump. Once converted, they can easily be transferred to your memory card. Popular gaming website. If your old PlayStation stopped working long time ago and you still keep your collection of games, PSX Emulator will allow you to enjoy your games on your PC. org, PS1, PSX, Playstation. EmuBox (Google Play - FREE) - For Android devices. 0 (REDUMP) yet. The required format for the CD images is BIN+CUE. com's PSX ROMs section. SNK – Neo Geo CD. Permainan PSX yang paling berkesan buat saya adalah Final Fantasy 7, Harvest Moon Back to Jikalau Anda memang orang yang ingin mendownload file game PSX yang ukuran filenya kecil. org's goal is to have a complete database of disc-based media using only original media. - Close to 800 Sega (DC, MCD, SS) discs. PSX | Игры PSP | PSX-PSP. Home Forums > PlayStation 3 Forums > General PS3 Discussion > Help & Support > checking backups with redump Discussion in ' Help & Support ' started by trebor22 , Dec 16, 2019. Платформа: Sony Playstation CyberTiger (U) [SLUS-01004] (Redump) Год выпуска: 1999 Разработчик: Electronic Arts, Inc. Crash Bandicoot. Region Title System Version Edition Languages Serial Status; F-1 Grand Prix 1996: Team Un'ei Simulation. Choose which file format your SD or USB stick is. 2002 video game. 4 Redump needed 1. For example, "SLES_025. They're exact copies of the original media they were originally released. They currently have more than 14900 (~4700 PSX) disc entries present in their database. bin file, but a lot of games ripped using the Redump method have multiple. Платформа: Sony Playstation. 161 (approximately). gcz format directly, I think we can just make Dolphin refuse to compress the ISO. iso format makes games even smaller and works with both GameCube and Wii games. 95GB Sony PlayStation (Japan) [Non-Redump] 120. всё что нашел это раз - http://en. Cool Boarders 2 (U) [SCUS-94358] (Redump) Год выпуска: 1997 Разработчик: UEP Systems Inc. Can anyone add any Redump PS2 PAL games (Europe) to the archive. I keep those in a folder and transfer the folder onto the pi to keep the ES list. cue file and one. dat, then try to add metadata from metadat/redump/Sony Playstation. [Redump org] PSX download. PSX Brasil no YouTube. Tonka Space Station (U) [SLUS-01007] (Redump) Год выпуска: 2000 Разработчик: Data Design Interactive Издатель: Hasbro Interactive Платформа: Sony Playstation Defcon 5 - Peace Has a Price (U) [SLUS-00009] (Redump) Год выпуска: 1995 Разработчик: Millennium Interactive Ltd. org, ps1, psx, sony playstation 1, playstation 1 Jun 29, 2018 · We are proud members of this fine tradition, a tradition as old as Claudius, the misunderstood misfit who cradled all of Rome in his arms. de/vidgames/psx_cd_faq. [PS] Sony PlayStation NTSC-J [2015-11-03] [Redump. If your old PlayStation stopped working long time ago and you still keep your collection of games, PSX Emulator will allow you to enjoy your games on your PC. Sony – PlayStation. Name Last modified Size; Go to parent directory: 007 - Demain ne Meurt Jamais (France). To use SBI, name it after EXE name, leaving extension. * This is the Linux port of the OpenGL2 plugin. My Sony PlayStation USA (Redump. 06B (Europe) - Capital B; lowercase b is dumped - ebay Action Replay 1. Redump GameCube USA set. Browse All PSX Roms. (Must be FAT32 or NTFS, if not you'll need to format it, read down below for instructions). 2002 video game. 04 (Europe) FreeLoader 1. xbe_patch then rename the default. But still, Redump was born as a Playstation 1 Database to finally make a difference preserving this platform, and today, I think, we made honor to that purpose and there's no turning back to that. the games saved in. The PS1 is long out of date, but the games are still lots of fun to play. Publication date 2019-06-05 Topics redump, redump. 0 (REDUMP) yet. PlayStation. 2 core, including a 32bit version, and a 64bit version (alpha). dll "%ROM_RAW%" psx